Error While Opening Codec For Output Stream #0.1 Ffmpeg

How to fix "An error occurred while opening a codec" XVID error (Sony Vegas)

RECOMMENDED: If you have Windows errors then we strongly recommend that you download and run this (Windows) Repair Tool.

how to recognize video codec of a file with ffmpeg. 230. Cutting the videos. ffmpeg output does not contain any stream when concatenating mp4. 1.

dBpoweramp mp3 Converter music conversion perfected Trusted by 30 million people, easy conversion between audio formats

Did ffmpeg rename libx264 to something else for invoking it?. Stream #0.1(eng) : Audio: libfaac, 48000 Hz, 5.1, s16, 64 kb/s. Error while opening encoder for output stream #0.0 – maybe incorrect parameters such as bit_rate.

Error C2664 Time Inl However for the life of me I get a compile time error that makes no bloody sense. Error 7 error C2664: 'void FScriptInterface::SetObject(UObject )'. my class was declared as a UFUNCTION() a detail I left out in my initial. GUY Sebastian is on the hunt for a new manager after splitting with long-time. Jun 9,

MDGx AXCEL216 MAX Speed Performance Windows 10 2012 8.1 8 7 2008 Vista 2003 XP SP1 SP2 SP3 ME 2000 98 SE OSR2 OSR1 95.

Dig Into Nearly 30 Years of Free Classic. – Lifehacker – If you’re a fan of classic science fiction from the likes of Ray Bradbury, Isaac Asimov, and Robert A. Heinlein, you’re in luck. Archive.org now has a massive.

What are all codecs supported by FFmpeg?. the output that describes each letter that precedes the name of the format, encoder, decoder, or codec: $ ffmpeg.

2010年6月25日. AACエンコードには何を使うか悩んだが、ffmpegと一緒にくっついてくるlibfaacは、 コードの一. Stream #0.1[0x112]: Audio: aac, 48000 Hz, 5.1, s16, 381 kb/s. Error while opening encoder for output stream #0.0 – maybe incorrect.

Hp Photosmart C7280 Fatal Error During Installation solved: will not complete installation of new software to solve hp solution center not loading and unable to scan – 1832805 – 2 Hp Photosmart C7280 Fatal Error During Installation – Best. – Hp Photosmart C7280 Fatal Error During Installation ook The Chromebooks are specifically designed and optimized h4descargar driver hp laserjet p1505 I have

14 set 2011. Error while opening encoder for output stream #0.1 – maybe incorrect. ffmpeg -i input.vob -f avi -vcodec libxvid -b 800k -g 300 -bf 2 -acodec.

So, it’s finally here. The iPad. And one of the frequent questions over the last few weeks has been if and when the BBC iPlayer will arrive on it. Most of you will be aware of the recent discussions around Flash not being available on the.

I'm getting "Could not write header for output file #0 (incorrect codec. FFmpeg concatenate – Error while opening encoder. newest codec questions feed.

It’s time for the anger room. At an anger room, you pay to smash electronics, furnitures, mannequins, and the room itself. While these rooms have been around since at least 2008, they’re doing brisk business lately, says Penelope Green of.

Stream – Starting Friday, anyone with a New York Public Library or Brooklyn Public Library will be able to stream thousands of awesome movies, including the entire Criterion Collection. Why? Because libraries are awesome, that’s why. Truth be.

ffmpeg is not work in current version. Agile. Seems stream 0 codec frame rate differs. 0.0 -> #0.0 Stream #0.1 -> #0.1 Error while opening encoder for output.

A codec – or coder/decoder – is an encoding tool that processes video and stores it in a stream. codec, while XviD is an open source utility meant to function as an alternative to its commercial cousin. Both codecs can decode the.

“It was as if the Olympics opening ceremony was replaced by a networking event,” says the Verge. The event demonstrates Microsoft’s global dominance, as forty.

The VideoLAN Forums. udp access output opened(230.1.1.1:1234) [00000297] main private debug:. [00000357] ffmpeg encoder error:.

RECOMMENDED: Click here to fix Windows errors and improve system performance